#TITLE:For The Savior;
#SUBTITLE:Lufia II;
#ARTIST:Yasunori Shiono;
#TITLETRANSLIT:;
#SUBTITLETRANSLIT:;
#ARTISTTRANSLIT:;
#CREDIT:;
#BANNER:For The Savior.jpg;
#BACKGROUND:For The Savior-bg.jpg;
#LYRICSPATH:;
#CDTITLE:!chickendudecdtitle.png;
#MUSIC:For The Savior.mp3;
#OFFSET:-0.620;
#SAMPLESTART:60.460;
#SAMPLELENGTH:11.960;
#SELECTABLE:YES;
#BPMS:0.000=173.000;
#STOPS:;
#BGCHANGES:;
// cache tags:
#FIRSTBEAT:0.000;
#LASTBEAT:400.000;
#SONGFILENAME:Songs/Music V.I.P ^_^/For The Savior (ChickenDude)/For The Savior.sm;
#HASMUSIC:1;
#HASBANNER:1;
#MUSICLENGTH:142.140;
// end cache tags

//---------------dance-single - ----------------
#NOTES:
     dance-single:
     :
     Hard:
     11:
     0.995,0.985,0.711,0.281,0.693,849.000,101.000,40.000,0.000,2.000:




1001
1000
1000
0100
0100
0100
1000
1000
,
1000
0001
0001
0001
1100
0100
1010
0010
,
1001
0001
0001
0010
0010
0010
1000
1000
,
1000
0001
0001
0001
0110
0100
1010
1000
,
1001
0001
0001
0100
0100
0100
0010
0010
,
0010
1000
1000
1000
0101
0100
1001
0001
,
0011
0010
0010
1000
1000
1000
0100
0100
,
0100
0010
0010
0010
1001
0001
0110
0100
,
1100
1000
1000
0100
0100
0100
0010
0010
,
0010
0001
0001
0001
1100
0100
1010
1000
,
1001
0001
0001
0010
0010
0010
0001
0001
,
0001
0010
0010
0010
1100
1000
1001
0001
,
0101
0100
0100
0010
0010
0010
1000
1000
,
1000
0001
0001
0001
1100
0100
0110
0010
,
0012
0010
0010
0100
0100
0100
1000
1000
,
1000
0000
0010
0000
0010
0000
0010
0000
1000
0000
1000
0000
0010
0000
0013
0100
,
1000
0000
0000
0000
1001
0000
0000
0000
0000
0000
1001
0000
0010
0001
0010
0100
,
1000
0100
0010
0100
1000
0001
0010
0100
1000
0001
0010
0100
1000
0010
0100
0010
,
1001
0000
0001
0000
0001
0000
0010
0100
1000
0000
1000
0000
1000
0000
0100
0010
,
0001
0000
0001
0000
0001
0000
0010
0100
1000
0000
0001
0000
0010
0000
0010
0000
,
1002
0000
1000
0000
1000
0000
0100
0000
0100
0000
0100
0000
0010
0100
0010
0100
,
0010
0000
0100
0000
0103
0000
0100
0000
0011
0000
0010
0000
0010
0100
1000
0100
,
1001
0000
0001
0000
0001
0000
0010
0100
1000
0000
1000
0000
1000
0000
0010
1000
,
0100
0000
0100
0000
0100
0000
0010
0001
1010
0000
0000
1100
0000
0000
1001
0000
,
0012
0010
0010
0100
0100
0100
0013
0010
,
0010
0100
1000
0100
0010
0001
0100
0010
1000
0001
0100
0010
1000
0100
0010
0100
,
1001
0000
0001
0000
0001
0000
0010
0100
1000
0000
1000
0000
1000
0000
0001
0010
,
0100
0000
0100
0000
0100
0000
0010
0100
0011
0000
0010
0000
0010
0001
0010
0100
,
1010
0000
1000
0000
1000
0000
0101
0000
0100
0000
0100
0000
0010
1000
0010
1000
,
0101
0000
0001
0000
0001
0000
0110
0000
0100
0000
0100
0000
0010
0001
0010
0001
,
1100
0000
1000
0000
1000
0000
0100
0010
0001
0000
0001
0000
0001
0000
0100
0010
,
1000
0000
1000
0000
1000
0000
0001
0010
0001
0000
0000
0101
0000
0000
1001
0000
,
2001
0000
0000
0100
0000
0000
0010
3000
,
0001
0010
0100
0010
0100
1000
0100
1000
0001
0010
0001
1000
0100
0010
0001
0100
,
0020
0000
0000
0000
0100
0000
0000
0000
0000
0000
1000
0000
0000
0000
0100
1000
,
0130
0000
0000
0000
1000
0000
0100
0000
0010
0000
0000
0000
0200
0000
0300
0010
,
2001
0000
0000
0000
0000
0000
0100
0000
0000
0000
0000
0000
3010
0100
0010
0100
,
2010
0000
0000
0000
0000
3000
0000
0010
0102
0000
0000
0000
0000
0003
0010
0100
,
2020
0000
0000
0230
0000
0000
0000
0000
,
0300
0000
0001
0010
0001
0100
0001
0010
,
0002
0000
0000
0000
,
3003
0010
0100
1000
0100
0010
0001
0100
0010
1000
0100
0010
0001
0010
0100
0010
,
2001
0000
0000
0000
0100
0000
0000
0000
0000
0000
0010
0000
0001
0010
0100
0010
,
3001
0000
0000
0000
0100
0000
0010
0000
0001
0000
0000
0000
1010
0000
0010
0100
,
1020
0000
0000
0000
0100
0001
0100
1000
0000
0000
0000
0000
0031
0100
1000
0001
,
1020
0000
0000
0000
0030
0100
0010
0000
0201
0000
0000
0000
0300
0010
0100
0010
,
2001
0000
0000
0000
0010
0000
0000
0000
0000
0000
0100
0000
0000
0000
0001
0010
,
3200
0000
0010
1000
0010
0001
0010
1000
,
0320
0000
0100
0000
0000
0100
0000
0000
,
0100
0000
0000
0000
0030
0000
0000
0000
0100
0000
0000
0000
1000
0100
0010
0100
,
1001
1000
1000
0100
0100
0100
0001
0001
,
0001
0000
0010
0000
0010
0000
0010
0000
0100
0000
0100
0000
0001
0010
0001
0010
,
1001
0000
1000
0000
1000
0000
0100
0000
0100
0000
0100
0000
0001
0010
0001
0010
,
0001
0000
0010
0000
0010
0000
1000
0100
1000
0000
1000
0000
0100
0010
0100
0010
,
1001
0000
0001
0000
0001
0000
0010
0000
0010
0000
0010
0000
0001
1000
0001
1000
,
0001
0000
1000
0000
1000
0000
0010
0100
0010
0000
0100
0000
0010
1000
0010
1000
,
0101
0000
0001
0000
0001
0000
0010
0100
0010
0000
0010
0000
0001
0010
0001
0010
,
1100
0000
1000
0000
1000
0000
0100
0010
0100
0000
0100
0000
0010
1000
0010
1000
,
0101
0000
0100
0000
0100
0000
0010
0001
0010
0000
0010
0000
0100
1000
0100
1000
,
0011
0000
0001
0000
0001
0000
0010
0100
0010
0000
0010
0000
1000
0001
1000
0001
,
0110
0000
0010
0000
0010
0000
0100
0001
0100
0000
0100
0000
0010
0100
0010
0100
,
1001
0000
1000
0000
1000
0000
0100
0001
0100
0000
0100
0000
0010
0001
0010
0001
,
1010
0000
1000
0000
1000
0000
0001
0010
0001
0000
0001
0000
0100
1000
0100
1000
,
0101
0000
0001
0000
0001
0000
0010
1000
0010
0000
0010
0000
1000
0100
1000
0100
,
1002
0000
1000
0000
1000
0000
0010
0100
0010
0000
0010
0000
0100
1000
0100
1000
,
0100
0000
0100
0000
0100
0000
0010
1000
0010
0000
0010
0000
0100
1000
0103
0010
,
0201
0000
0010
0000
0000
0001
0000
0010
,
0301
0010
0100
1000
0100
0010
0100
0010
0001
0010
0001
1000
0100
0010
0001
0010
,
1001
0000
0001
0000
0001
0000
0010
0100
0010
0000
0010
0000
0010
0000
1000
0100
,
0010
0000
0010
0000
0010
0000
0100
0010
1000
0000
0000
0101
0000
0000
0110
0000
,
1001
0000
0001
0000
0001
0000
0110
0000
0010
0000
0010
0000
0100
0001
0100
0001
,
1010
0000
0010
0000
0010
0000
1100
0000
0100
0000
0100
0000
0001
0010
0001
0010
,
1001
0000
1000
0000
1000
0000
0100
0010
0001
0000
0001
0000
0001
0000
0100
0010
,
1000
0000
1000
0000
1000
0000
0100
0010
1001
0000
0000
0110
0000
0000
0101
0000
,
2001
0000
0000
0000
0000
0000
0010
0000
0000
0000
0000
0000
0100
0010
0100
0010
,
3100
0010
0001
0010
0100
1000
0100
0010
0001
0100
0010
0100
0001
0010
0100
1000
,
0101
0000
0100
0000
0100
0000
0010
0001
1000
0000
1000
0000
1000
0000
0100
0010
,
0001
0000
0001
0000
0001
0000
0010
0100
0010
0000
0000
1010
0000
0000
1001
0000
,
0011
0000
0010
0000
0010
0000
1001
0000
1000
0000
1000
0000
0010
0001
0010
0001
,
1100
0000
1000
0000
1000
0000
0101
0000
0100
0000
0100
0000
0001
0010
0001
0010
,
1001
0000
1000
0000
1000
0000
0100
0010
0001
0000
0001
0000
0001
0000
0100
0010
,
0001
0000
1000
0000
0001
0000
0010
0100
0010
0000
0000
1001
0000
0000
0101
0000
,
2001
0000
0000
0000
0000
0000
0010
0000
0000
0000
0000
0000
0100
0001
0100
0001
,
3010
0100
1000
0100
0010
0001
0010
0001
1000
0100
0010
0001
1000
0100
1000
0001
,
0020
0000
0000
0000
1000
0000
0000
0000
0000
0000
0100
0000
0000
0000
0100
1000
,
0130
0000
0000
0000
0001
0000
0100
0000
0010
0000
0000
0000
0002
0000
0003
0010
,
2100
0000
0000
0000
0000
0000
0100
0000
0000
0000
0000
0000
3010
0001
0010
0001
,
0210
0000
0000
0000
0000
0000
0300
1000
0120
0000
0000
0000
0000
0030
0001
0010
,
2200
0000
0000
0302
0000
0000
0000
0000
,
0003
0000
0010
0100
0010
0001
0010
0100
,
0020
0000
0000
0000
,
3030
0001
0100
1000
0100
0001
0010
0100
0010
0001
1000
0100
0010
0001
0100
0010
,
2001
0000
0000
0000
0100
0000
0000
0000
0000
0000
0010
0000
0100
0010
0001
0010
,
3100
0000
0000
0000
0100
0000
0010
0000
0001
0000
0000
0000
1010
0000
0010
0100
,
1002
0000
0000
0000
0100
0010
0100
1000
0000
0000
0000
0000
0013
0100
1000
0001
,
1020
0000
0000
0000
0030
0100
0010
0000
0201
0000
0000
0000
0300
0010
0100
0010
,
2001
0000
0000
0000
0010
0000
0000
0000
0000
0000
0100
0000
0000
0000
0001
0010
,
3200
0000
0010
1000
0010
0001
0010
1000
,
0320
0000
0100
0000
0000
0100
0000
0000
,
0100
0030
0101
0011
,
1001
0000
0000
0000
;
